Всегда рабочее зеркало без VPN и Proxy просто перед .vidak.icu напиши любое слово или цифру, Пример http://up6f.vidak.icu

MVO

MVO

1 сезон

1

1 сезон

iTunes

1 сезон

13

1 сезон

Deluxe

pack

Рекомендуем

Repack

30

ВАЖНО

RePack

MK11

RePack

jed

RePack

fifa19

RePack

RDR2

RePack

NEED FOR SPEED™ PAYBACK

Кинопоиск HD

6 сезон

 Острые козырьки 6 сезон

Все сериалы

все сериалы на PB.wtf

RePack

FAR CRY 5
  
Magnet ссылка

Люся / Сезон: 1 / Серии: 1-8 из 8 + Фильм о фильме (Иван И. Твердовский) [2022, Драма, комедия, WEBRip 1080p] 09w.vidak.icu

Люся через торрент 09w.vidak.icu

Раздают: 3 [ 49 KB/s ]
Размер: 7.54 GB | Добавлен: 5 д. назад | Торрент скачан:32 раза
Смотреть онлайн Люся | Скачать    Ребята, помогите собрать деньги на оплату серверов!!!

13-07-2022 21:51 Люся Скачать торрент  

Люся
Год выпуска: 2022
Страна: Россия
Производство: Good Story Media
Жанр: Драма, комедия
Продолжительность: ~ 00:25:00
Перевод: Не требуется
Субтитры: отсутствуют

Режиссер: Иван И. Твердовский

rating

В ролях: Данила Козловский, Дарья Савельева, Кристина Асмус, Максим Виторган, Ян Цапник, Григорий Верник, Александра Бабаскина, Таисия Битюкова, Иван Макаревич, Дарья Блохина, Анна Слю, Евгений Гомоной, Антон Юрьев, Наталья Павленкова, Алина Ходжеванова, Ирина Вилкова, Алексей Тахаров, Артём Борзовский, Роман Борзовский, Даниил Киселёв, Всеволод Володин, Алексей Личутин, Тамир Сикоев, Анна Шепелева, Сергей Степин, Надежда Подъяпольская, Артем Курганский, Александр Маврин, Александр Десятов

Описание: Сеня, создатель умной колонки «Люся», экспериментирует с алгоритмами, обсуждая с Люсей личные темы, семью, людей вокруг, и старается сделать ее максимально человечной. Люся быстро становится чем-то гораздо большим, чем просто колонка - она оказывается единственной, кому Сеня может доверить свои переживания, проблемы и размышления. Только она знает обо всех проблемах, с которыми столкнулись дочки Сени в школе, и только с ней он делится переживаниями об отношениях с женой. Умная колонка помогает мужчине пережить публичное унижение на глазах всей семьи, найти сына депутата, устроившего это унижение, и справиться с последствиями непоправимого поступка, который совершил Сеня.

Качество: WEBRip 1080p
Формат: MKV

Видео: MPEG-4 AVC, 1920x880, ~ 4500 Кбит/с, 0.087 bit/pixel, 25 Кадр/с
Аудио: 48.0 kHz, AC3 Dolby Digital, 2/0 (L,R) ch, ~ 192 kbps
скриншот  скриншот  скриншот  скриншот  скриншот  

Общее
Уникальный идентификатор : 68362975922783726214133280024217605252 (0x336E3AF11EEC200100EECC85D97D5484)
Полное имя : D:\Lyusya.S01.2022.WEBRip.1080p\Lyusya.S01.E01.2022.WEBRip.1080p.mkv
Формат : Matroska
Версия формата : Version 4
Размер файла : 1,09 Гбайт
Продолжительность : 33 м. 39 с.
Режим общего битрейта : Переменный
Общий поток : 4 615 Кбит/сек
Название фильма : Lyusya.S01.E01.2022.WEBRip.1080p
Дата кодирования : UTC 2022-07-13 21:03:40
Программа кодирования : mkvmerge v68.0.0 ('The Curtain') 64-bit
Библиотека кодирования : libebml v1.4.2 + libmatroska v1.6.4
Attachments : poster.jpg

Видео
Идентификатор : 1
Формат : AVC
Формат/Информация : Advanced Video Codec
Профиль формата : [email protected]
Настройки формата : CABAC / 2 Ref Frames
Параметр CABAC формата : Да
Параметр RefFrames формата : 2 кадра
Идентификатор кодека : V_MPEG4/ISO/AVC
Продолжительность : 33 м. 39 с.
Вид битрейта : Переменный
Битрейт : 4 419 Кбит/сек
Максимальный битрейт : 4 500 Кбит/сек
Ширина : 1 920 пикселей
Высота : 880 пикселей
Соотношение сторон : 2,2:1
Режим частоты кадров : Постоянный
Частота кадров : 25,000 кадров/сек
Цветовое пространство : YUV
Субдискретизация насыщенности : 4:2:0
Битовая глубина : 8 бит
Тип развёртки : Прогрессивная
Бит/(Пиксели*Кадры) : 0.105
Размер потока : 1,04 Гбайт (96%)
Default : Да
Forced : Нет
Цветовой диапазон : Limited
Основные цвета : BT.709
Характеристики трансфера : BT.709
Коэффициенты матрицы : BT.709

Аудио
Идентификатор : 2
Формат : AC-3
Формат/Информация : Audio Coding 3
Коммерческое название : Dolby Digital
Идентификатор кодека : A_AC3
Продолжительность : 33 м. 39 с.
Вид битрейта : Постоянный
Битрейт : 192 Кбит/сек
Каналы : 2 канала
Channel layout : L R
Частота : 48,0 КГц
Частота кадров : 31,250 кадров/сек (1536 SPF)
Метод сжатия : С потерями
Задержка видео : -120 мс.
Размер потока : 46,2 Мбайт (4%)
Service kind : Complete Main
Default : Да
Forced : Нет

Внимание! Раздача ведётся путём добавления новых серий; при каждом добавлении создаётся новый торрент.
Чтобы начать докачку новой серии, пользователям необходимо сделать следующее:
1. Остановить скачивание;
2. Удалить старый торрент у себя из клиента (старые серии удалять не надо);
3. Скачать новый торрент и запустить его у себя в клиенте вместо старого, при этом указать клиенту путь в старую папку куда и должно происходить скачивание новых серий. Ваш клиент при этом должен произвести хеширование (проверку) старой папки и будет докачивать только те серии, которых у вас ещё нет. Старые серии при этом не удаляются, а продолжают раздаваться! Eсли вы уже удалили старые серии, то предотвратить повторную закачку старых серий можно, отжав галочку в соответствующих местах при запуске нового торрента.
09w.vidak.icu



Скачать Люся через торрент https://i120.fastpic.org/big/2022/0713/e1/1de6bac3b723a03fb50b4143c0b898e1.jpg Скачать, смотреть онлайн Люся бесплантно в хорошем качестве Описание: Сеня, создатель умной колонки «Люся», экспериментирует с алгоритмами, обсуждая с Люсей личные темы, семью, людей вокруг, и ... 7.8 10 16
Торрент: Зарегистрирован [2022-08-05 02:43] · скачан: 32 раз
Статус: √ проверено
Размер: 7.54 GB
Как cкачать? Как скачать Люся через торрент | UTorrent

% Раздел Тема Автор DL S | L
TNT serials [ 5.21 GB ] Люся / Сезон: 1 / Серии: 1-8 из 8 + Фильм о фильме [2022 WEBRip 720p] bober100 Скачать
4 | 1
TNT serials [ 2.94 GB ] Люся / Сезон: 1 / Серии: 1-8 из 8 + Фильм о фильме [2022 WEBRip-AVC] bober100 Скачать
3 | 1
TNT serials [ 3.26 GB ] Люся / Сезон: 1 / Серии: 1-8 из 8 + Фильм о фильме [2022 WEBRip] bober100 Скачать
10 | 1


Последний раз редактировалось: bober100 (2022-08-05 02:43), всего редактировалось 7 раз(а)

28-11-2019 20:33  

Отключить вcю реклaмy на сайте

14-07-2022 13:58 Люся Скачать торрент  

сюжет конечно писец.Он может и спит с колонкой вместо жены?)09w.vidak.icu



19-07-2022 05:03 Люся Скачать торрент  

это такой ремейк бессоновского люси)) просто бюджет сильно распи*дили, поэтому на выходе появилась лайт-версия сценария))
зы. кто посмотрел, асмус снова по традиции сиськами-письками светила?))09w.vidak.icu



02-08-2022 18:46 Люся Скачать торрент  

Антонн писал(а):

сюжет конечно писец.Он может и спит с колонкой вместо жены?)

дурень, сначала посмотри фильм, там не о колонке вообще речь09w.vidak.icu



    Дорогой пользователь! Огромная просьба, поблагодарите релизера, оцените раздачу и оставьте свои комментарий, если Вы скачали Люся через торрент бесплатно!
    Комментировать посты могут только пользователи прошедшие не сложную регистрацию
    Показать сообщения:    

    Люся через торрент
    Скачать бесплатно Люся
    Люся скачать торрент
    Люся смотреть онлайн
    Cкачать фильм Люся бесплатно
    Люся скачать торрент в хорошем качестве
    Люся смотреть онлайн бесплатно в хорошем качестве


    Вы не можете начинать темы
    Вы не можете отвечать на сообщения
    Вы не можете редактировать свои сообщения
    Вы не можете удалять свои сообщения
    Вы не можете голосовать в опросах
    Вы не можете прикреплять файлы к сообщениям
    Вы можете скачивать файлы